DNS SERVER ÄNDERN, um der staatlichen Zensur zu entgehen. Sollten wir von eurem Provider gesperrt werden, nutzt den TOR BROWSER oder ändert euren DNS SERVER.

Filmwünsche können bei uns im Forum abgegeben werden

Wir Speichern Nicht




 
 
 
Top Releases
Halloween.2018.MULTi.COMPLET...
Das.schoenste.Maedchen.der.W...
Das.schoenste.Maedchen.der.W...
Girl.German.DL.720p.BluRay.x...
Girl.2018.MULTi.COMPLETE.BLU...
Das.schoenste.Maedchen.der.W...
Girl.German.DL.1080p.BluRay....
Operation.Overlord.2018.Germ...
Der.wilde.Pazifik.Die.Schoen...
Venom.2018.MULTi.COMPLETE.UH...

Cinedubs
Klassentreffen.1.0.Die.ungla...
Klassentreffen.1.0.Die.ungla...
Spider-Man.A.New.Universe.20...
Spider-Man.A.New.Universe.20...
Creed.2.Rockys.Legacy.2018.G...
Green.Book.Eine.besondere.Fr...
Creed.2.Rockys.Legacy.2018.G...
Ploetzlich.Familie.2018.GERM...
Maria.Stuart.Koenigin.von.Sc...
Maria.Stuart.Koenigin.von.Sc...

Neuerscheinungen 2018-19
Unzerstoerbar.Die.Panzerschl...
Unzerstoerbar.Die.Panzerschl...
Night.School.THEATRICAL.Germ...
Night.School.THEATRICAL.Germ...
Die.Geiselnahme.2018.GERMAN....
Samson.2018.German.DL.1080p....
Samson.2018.German.720p.BluR...
Instant.Death.2017.GERMAN.DL...
Instant.Death.2017.GERMAN.72...
Halloween.2018.German.720p.B...

XXX
DarkX.19.01.31.Skylar.Snow.R...
KarupsOW.19.01.30.Nina.Hartl...
Nympho.19.01.30.Carmen.Calie...
FTVGirls.19.01.30.Gracie.Org...
ATKHairy.19.01.29.Kasey.Warn...
AlexisMonroe.18.07.27.Teenie...
BAMVisions.19.01.27.Victoria...
AlexisMonroe.18.05.12.Foot.F...
BitchConfessions.19.01.30.Pa...
MomPov.BONUS.E90.Connie.XXX....
GirlsOutWest.19.01.30.Alicia...
BangBus.19.01.30.Alexa.Vega....
NewSensations.19.01.30.Lilly...
PlayboyPlus.19.01.28.Gloria....
Submissived.19.01.28.Lola.Ch...
SinfulXXX.19.01.29.Anna.Poli...
AlexisMonroe.18.11.09.Isiah....
PlumperPass.19.01.28.Kendra....
MomPov.BONUS.E100.Maggie.XXX...
TrannySurprise.17.07.19.Caro...

3D
Phantastische.Tierwesen.und....
Phantastische.Tierwesen.und....
Top.Gun.3D.1986.COMPLETE.BLU...
Passengers.2016.3D.HOU.Germa...
Venom.3D.2018.German.DL.1080...
Venom.3D.2018.MULTi.COMPLETE...
Passengers.2016.3D.HSBS.Germ...
Die.Unglaublichen.2.3D.2018....
Die.Reise.zum.Mittelpunkt.de...
Die.Reise.zum.Mittelpunkt.de...
Die.Reise.zum.Mittelpunkt.de...
Kaluoka.Hina.Das.Zauberriff....
Blade.Runner.2049.3D.2017.Ge...
Walhalla.Rising.3D.2009.DUAL...
Sleepwalker.3D.2011.DUAL.COM...

Old_Stuff
Soylent.Green.2022.die.ueber...
Drive.2011.German.DL.DTS.108...
Die.Schoene.und.das.Biest.Sp...
Kung.Fu.Panda.2008.German.DL...
Cars.2006.German.1080p.BluRa...
Die.Bestimmung.Divergent.201...
Disneys.Eine.Weihnachtsgesch...
Shrek.der.Dritte.2007.German...
Shrek.2.Der.tollkuehne.Held....
Men.of.Honor.2000.MULTi.COMP...
Over.the.Top.1987.MULTi.COMP...
Feinde.Hostiles.2017.German....
Total.Recall.EXTENDED.2012.G...
Blade.II.2002.UNCUT.German.A...
Transformers.2007.German.AC3...

Filme
Die.Geiselnahme.2018.GERMAN....
Wackersdorf.2018.German.1080...
Girl.2018.German.DL.1080p.Bl...
Halloween.2018.German.UHDBD....
Halloween.2018.German.1080p....
Das.schoenste.Maedchen.der.W...
Black.Hawk.Down.2001.Extende...
Die.Suenderin.1951.GERMAN.CO...
Kokowaeaeh.2011.German.1080p...
Felony.Ein.Moment.kann.alles...
Utoya.22.Juli.2018.German.DT...
Stirb.langsam.Ein.guter.Tag....
Snowy.River.1982.German.1080...
Upgrade.2018.German.DTS.DL.1...
Superfly.2018.German.DTS.DL....
Fight.City.Of.Darkness.2011....
Rocky.IV.1985.German.DL.1080...
Wo.bitte.gehts.zur.Front.197...
El.Chapo.S01.COMPLETE.German...
El.Chapo.S01.COMPLETE.German...
FBI.S01.GERMAN.DUBBED.720p.H...
The.Big.Bang.Theory.S12.GERM...
The.Big.Bang.Theory.S12.GERM...
Ihre.Majestaet.Mrs.Brown.199...

 
 
Psych.S06.GERMAN.DUBBED.DL.720p.WebHD.h264-euHD

Jahr: 2012
Genre: Komödie | Krimi | Mystery
Sprache: Deutsch AC3 | Englisch AC3
Laufzeit: 41min je Folge
Bitrate: 4000 Kbps
Format: MKV
Größe: 1,35 GB je Folge
Release:

Beschreibung:

Psych erzählt die Geschichte des selbsternannten Amateur-Detektivs Shawn Spencer (James Roday), der als Kind schon von seinem Vater Henry (Corbin Bernsen) darauf trainiert wurde, sehr aufmerksam durchs Leben zu gehen und sich Details zu merken, um u.a. Menschen generell besser verstehen zu können.

 

enthaltene Folgen:

Psych.S06E01.Shawn.rettet.Darth.Vader.GERMAN.DUBBED.DL.720p.WebHD.h264-euHD

Psych.S06E02.Hangover.in.Santa.Barbara.GERMAN.DUBBED.DL.720p.WebHD.h264-euHD

Psych.S06E03.Lassie.der.Vampirkoeder.GERMAN.DUBBED.DL.720p.WebHD.h264-euHD

Psych.S06E04.Psych.Man.Forever.GERMAN.DUBBED.DL.720p.WebHD.h264-euHD

Psych.S06E05.Coach.Spencer.und.der.Mord.im.Sport.GERMAN.DUBBED.DL.720p.WebHD.h264-euHD NEU



General
Complete name                            : Psych.S06E01.Shawn.rettet.Darth.Vader.GERMAN.DUBBED.DL.720p.WebHD.h264-euHD\euhd-psych-s06e01-720p.mkv
Format                                   : Matroska
Format version                           : Version 2
File size                                : 1.32 GiB
Duration                                 : 41mn 5s
Overall bit rate                         : 4 615 Kbps
Encoded date                             : UTC 2013-07-18 21:12:44
Writing application                      : mkvmerge v5.1.0 ('And so it goes') built on Nov 28 2011 23:58:28
Writing library                          : libebml v1.2.3 + libmatroska v1.3.0

Video
ID                                       : 1
Format                                   : AVC
Format/Info                              : Advanced Video Codec
Format profile                           : High@L3.1
Format settings, CABAC                   : No
Format settings, ReFrames                : 2 frames
Codec ID                                 : V_MPEG4/ISO/AVC
Duration                                 : 41mn 5s
Bit rate                                 : 3 947 Kbps
Width                                    : 1 280 pixels
Height                                   : 720 pixels
Display aspect ratio                     : 16:9
Frame rate mode                          : Constant
Frame rate                               : 25.000 fps
Color space                              : YUV
Chroma subsampling                       : 4:2:0
Bit depth                                : 8 bits
Scan type                                : Progressive
Bits/(Pixel*Frame)                       : 0.171
Stream size                              : 1.13 GiB (86%)
Default                                  : Yes
Forced                                   : No
Color primaries                          : BT.709
Transfer characteristics                 : BT.709
Matrix coefficients                      : BT.709

Audio #1
ID                                       : 2
Format                                   : AC-3
Format/Info                              : Audio Coding 3
Format profile                           : Dolby Digital
Mode extension                           : CM (complete main)
Format settings, Endianness              : Big
Codec ID                                 : A_AC3
Duration                                 : 41mn 5s
Bit rate mode                            : Constant
Bit rate                                 : 192 Kbps
Channel(s)                               : 2 channels
Channel positions                        : Front: L R
Sampling rate                            : 48.0 KHz
Bit depth                                : 16 bits
Compression mode                         : Lossy
Stream size                              : 56.4 MiB (4%)
Language                                 : German
Default                                  : Yes
Forced                                   : No

Audio #2
ID                                       : 3
Format                                   : AC-3
Format/Info                              : Audio Coding 3
Mode extension                           : CM (complete main)
Format settings, Endianness              : Big
Codec ID                                 : A_AC3
Duration                                 : 41mn 5s
Bit rate mode                            : Constant
Bit rate                                 : 384 Kbps
Channel(s)                               : 6 channels
Channel positions                        : Front: L C R, Side: L R, LFE
Sampling rate                            : 48.0 KHz
Bit depth                                : 16 bits
Compression mode                         : Lossy
Stream size                              : 113 MiB (8%)
Language                                 : English
Default                                  : No
Forced                                   : No



Download:
Share-Online.biz Share-Online.bizShare-Online.bizShare-Online.biz | Uploaded.net Uploaded.netUploaded.netUploaded.net | Cloudzer.net Cloudzer.netCloudzer.netCloudzer.net
 

Kommentare