DNS SERVER ÄNDERN, um der staatlichen Zensur zu entgehen. Sollten wir von eurem Provider gesperrt werden, nutzt den TOR BROWSER oder ändert euren DNS SERVER.

Filmwünsche können bei uns im Forum abgegeben werden

Wir Speichern Nicht




 
 
 
Top Releases
Venom.2018.MULTi.COMPLETE.UH...
OPERATION.Overlord.2018.COMP...
Heavy.Trip.2018.German.1080p...
Utoya.22.Juli.2018.MULTi.COM...
Heavy.Trip.2018.MULTi.COMPLE...
Isle.of.Dogs.2018.MULTi.COMP...
Sauerkrautkoma.2018.GERMAN.C...
OPERATION.OVERLORD.2018.MULT...
Venom.2018.MULTI.COMPLETE.BL...
Venom.2018.German.DL.1080p.B...

Cinedubs
The.Possession.of.Hannah.Gra...
The.Possession.of.Hannah.Gra...
Here.and.Now.2018.German.DL....
Here.and.Now.2018.German.DL....
Belleville.Cop.2018.German.A...
Belleville.Cop.2018.German.A...
Can.You.Ever.Forgive.Me.2019...
Can.You.Ever.Forgive.Me.2019...
Ralph.reichts.2.Chaos.im.Net...
Ralph.reichts.2.Chaos.im.Net...

Neuerscheinungen 2018-19
Der.Sizilianer.1987.German.D...
Alien.Predator.2018.German.D...
Alien.Predator.2018.German.7...
Alien.Predator.2018.DUAL.COM...
Extremities.1986.German.DL.1...
Extremities.1986.German.720p...
Operation.Nussknacker.2.2018...
Operation.Nussknacker.2.2018...
Operation.Overlord.2018.Germ...
Operation.Overlord.2018.Germ...

XXX
AlexisMonroe.18.10.22.Birthd...
ATKGirlfriends.19.01.31.Soph...
MomPov.BONUS.E99.Angie.XXX.7...
Nubiles.19.01.31.Roxy.Lips.B...
RoccoSiffredi.19.01.31.Lee.A...
Bryci.18.05.03.Neon.POV.Blow...
DorcelClub.19.01.28.Cassie.D...
ExxxtraSmall.19.01.31.Kenzie...
WeFuckBlackGirls.19.01.28.Be...
Private.Specials.249.Ass.Lic...
CeceSeptember.18.01.07.Sofa....
MomPov.BONUS.E97.Kiesha.XXX....
Bang.Rammed.19.01.30.Gia.Der...
ClubSeventeen.19.01.30.Inna....
YoungSexParties.19.01.28.Emm...
Bryci.18.07.30.Black.Lace.Fu...
AssParade.19.01.28.Abella.Da...
Tushy.19.01.31.Gina.Valentin...
MomPov.BONUS.E91.Nina.XXX.72...
MomPov.BONUS.E103.Harper.XXX...

3D
Passengers.2016.3D.HOU.Germa...
Venom.3D.2018.German.DL.1080...
Venom.3D.2018.MULTi.COMPLETE...
Passengers.2016.3D.HSBS.Germ...
Die.Unglaublichen.2.3D.2018....
Die.Reise.zum.Mittelpunkt.de...
Die.Reise.zum.Mittelpunkt.de...
Die.Reise.zum.Mittelpunkt.de...
Kaluoka.Hina.Das.Zauberriff....
Blade.Runner.2049.3D.2017.Ge...
Walhalla.Rising.3D.2009.DUAL...
Sleepwalker.3D.2011.DUAL.COM...
Bis.an.die.Grenzen.des.Unive...
Best.of.3D.vol.13.-.15.GERMA...
Limbradur.und.die.Magie.der....

Old_Stuff
Cars.2006.German.1080p.BluRa...
Die.Bestimmung.Divergent.201...
Disneys.Eine.Weihnachtsgesch...
Shrek.der.Dritte.2007.German...
Shrek.2.Der.tollkuehne.Held....
Men.of.Honor.2000.MULTi.COMP...
Over.the.Top.1987.MULTi.COMP...
Feinde.Hostiles.2017.German....
Total.Recall.EXTENDED.2012.G...
Blade.II.2002.UNCUT.German.A...
Transformers.2007.German.AC3...
Ip.Man.2.2010.German.DTS.108...
Todfreunde.aka.Bad.Influence...
Animatrix.2003.German.DL.720...
Animatrix.2003.German.DL.108...

Filme
The.Grand.Tour.S03.German.DL...
The.Grand.Tour.S03.German.DL...
Naach.2004.German.1080p.HDTV...
Naach.2004.German.720p.HDTV....
London.Dreams.2009.German.10...
London.Dreams.2009.German.72...
Ganz.oben.-.Die.diskrete.Wel...
Alien.Predator.2018.German.D...
Der.sechste.Kontinent.1976.G...
Feuerkaefer.aka.Bug.1975.Unc...
Mr.Holmes.2015.German.DL.108...
Der.eiserne.Unterrock.1956.G...
Margaret.2011.German.AC3D.10...
Geheimnisvolle.Orte.Schwanen...
Erlebnis.Erde.Magie.der.Fjor...
Love.and.Honor.2013.German.D...
Loosies.2011.German.DL.1080p...
Look.Away.2018.German.DL.DD5...
Look.Away.2018.German.DL.DD5...
Der.Nussknacker.und.die.vier...
The.Umbrella.Academy.S01.COM...
The.Umbrella.Academy.S01.COM...
The.Umbrella.Academy.S01.COM...
FBI.S01.GERMAN.5.1.DUBBED.DL...

 
 
Under.the.Dome.S01.COMPLETE.German.720p.BluRay.x264-RSG

Jahr: 2013
Genre: Drama |Horror |Mysterie
Sprache: Deutsch AC3
Laufzeit: 43min je Folge
Bitrate: 3100 Kbps
Format: MKV
Größe: 1,1 GB je Folge
Release:

Beschreibung:

Ohne Vorwarnung wird die US-Kleinstadt Chester’s Mill mit einer unsichtbaren Kuppel von der Außenwelt abgetrennt. Während das Militär die Gegend außerhalb der Kuppel abriegelt und versucht, den Dingen auf den Grund zu gehen, sind Recht und Ordnung innerhalb der Stadt schon nach wenigen Tagen bedroht. Der einflussreiche Politiker und Geschäftsmann James ‚Big Jim‘ Rennie (Dean Norris) versucht, die Macht an sich zu reißen. In dem Ex-Soldaten Dale ‚Barbie‘ Barbara (Mike Vogel) sieht er einen nützlichen Verbündeten. Barbie freundet sich unterdessen mit der jungen Journalistin Julia Shumway (Rachelle Lefevre) an, die nicht ahnt, dass er ihren verschollenen Mann auf dem Gewissen hat.



General
Under.the.Dome.S01E01.Chesters.Mill.German.720p.BluRay.x264-RSG\rsg-utd-s01e01-720p.mkv
Format                                   : Matroska
Format version                           : Version 2
File size                                : 1.10 GiB
Duration                                 : 42mn 41s
Overall bit rate                         : 3 693 Kbps
Writing application                      : mkvmerge v4.1.1 ('Bouncin' Back') built on Jul  3 2010 22:54:08
Writing library                          : libebml v1.0.0 + libmatroska v1.0

Video
ID                                       : 1
Format                                   : AVC
Format/Info                              : Advanced Video Codec
Format profile                           : High@L4.1
Format settings, CABAC                   : Yes
Format settings, ReFrames                : 5 frames
Codec ID                                 : V_MPEG4/ISO/AVC
Duration                                 : 42mn 41s
Bit rate                                 : 3 172 Kbps
Width                                    : 1 280 pixels
Height                                   : 720 pixels
Display aspect ratio                     : 16:9
Frame rate mode                          : Constant
Frame rate                               : 23.976 fps
Color space                              : YUV
Chroma subsampling                       : 4:2:0
Bit depth                                : 8 bits
Scan type                                : Progressive
Bits/(Pixel*Frame)                       : 0.144
Stream size                              : 969 MiB (86%)
Writing library                          : x264 core 142 r2409 d6b4e63
Encoding settings                        : cabac=1 / ref=5 / deblock=1:-3:-3 / analyse=0x3:0x113 / me=umh / subme=7 / psy=1 / psy_rd=1.00:0.15 / mixed_ref=1 / me_range=16 / chroma_me=1 / trellis=1 / 8x8dct=1 / cqm=0 / deadzone=21,11 / fast_pskip=0 / chroma_qp_offset=-3 / threads=12 / lookahead_threads=2 / sliced_threads=0 / nr=0 / decimate=1 / interlaced=0 / bluray_compat=0 / constrained_intra=0 / bframes=3 / b_pyramid=2 / b_adapt=1 / b_bias=0 / direct=1 / weightb=1 / open_gop=0 / weightp=2 / keyint=240 / keyint_min=23 / scenecut=40 / intra_refresh=0 / rc_lookahead=40 / rc=crf / mbtree=1 / crf=20.0 / qcomp=0.60 / qpmin=10 / qpmax=69 / qpstep=4 / ip_ratio=1.40 / aq=1:1.00
Language                                 : English
Default                                  : Yes
Forced                                   : No

Audio
ID                                       : 2
Format                                   : AC-3
Format/Info                              : Audio Coding 3
Mode extension                           : CM (complete main)
Format settings, Endianness              : Big
Codec ID                                 : A_AC3
Duration                                 : 42mn 41s
Bit rate mode                            : Constant
Bit rate                                 : 448 Kbps
Channel(s)                               : 6 channels
Channel positions                        : Front: L C R, Side: L R, LFE
Sampling rate                            : 48.0 KHz
Bit depth                                : 16 bits
Compression mode                         : Lossy
Stream size                              : 137 MiB (12%)
Language                                 : German
Default                                  : Yes
Forced                                   : No

Menu
00:00:00.000                             : en:00:00:00.000
00:10:36.719                             : en:00:10:36.719
00:16:45.796                             : en:00:16:45.796
00:26:15.615                             : en:00:26:15.615
00:33:43.688                             : en:00:33:43.688
00:42:13.948                             : en:00:42:13.948
00:42:41.934                             : en:00:42:41.934



Download:
Share-Online.biz Share-Online.bizShare-Online.bizShare-Online.biz
 

Kommentare